Parálisis por análisis - Что делать?
May 31st, 2014
11:29 pm

[Link]

Previous Entry Add to Memories Tell A Friend Next Entry
Что делать?
Проблемы с проигрыванием некоторых файлов лосслесс

Например пытаюсь открыть один, мне пишет

Unable to open item for playback (Object not found):
"C:\Users\...\Music\Lossless\Bill Frisell_1999 - Good Dog, Happy Man\Bill Frisell - Good Dog, Happy Man.cue" / index: 1

потом если открываю этот файл в блокноте у меня написано такое:

REM GENRE country
REM DATE 1999
REM DISCID 8F0E9C0C
REM COMMENT "ExactAudioCopy v0.95b4"
PERFORMER "Bill Frisell"
TITLE "Good Dog, Happy Man"
FILE "Bill Frisell - Good Dog, Happy Man.wav" WAVE
TRACK 01 AUDIO
TITLE "Rain, Rain"
PERFORMER "Bill Frisell"
INDEX 01 00:00:00


Пользуюсь случаем чтобы сказать спасибо тем, кто мне в прошлый раз помогал выбрать технику для проигрывания музыки. В результате я купила Онкио и две колонки (лень вставать не помню чьи) и проигрываю с помощью компьютра. И еще я купила цап, который мне рекомендовал Пандуро (Твердохлеб) Вписалась в заявленную сумму.

(23 commentaires | Laisser un commentaire)

Comments
 
From:[info]rednyrg721
Date:May 31st, 2014 - 10:00 pm
(Link)
надо в строчке FILE "Bill Frisell - Good Dog, Happy Man.wav" WAVE поменять "Bill Frisell - Good Dog, Happy Man.wav" на имя сжатого файла, например "Bill Frisell - Good Dog, Happy Man.flac"
From:[info]rednyrg721
Date:May 31st, 2014 - 10:01 pm
(Link)
то есть должно быть примерно так:

FILE "Bill Frisell - Good Dog, Happy Man.flac" WAVE
From:(Anonymous)
Date:May 31st, 2014 - 10:17 pm
(Link)
Ещё надо перестать быть курицей.

Но она не сможет, очевидно.
From:(Anonymous)
Date:May 31st, 2014 - 10:32 pm
(Link)
что-то ты раскукарекался, петушок.
[User Picture]
From:[info]double_agent
Date:May 31st, 2014 - 10:54 pm
(Link)
не получается. допустим у меня есть один файл, который проигрывается. если его открыть в тхт, то там такое

REM GENRE "Rock"
REM DATE 1988
REM DISCID B40A2D0E
REM COMMENT "ExactAudioCopy v1.0b3"
CATALOG 0000000000000
PERFORMER "Shocking Blue"
TITLE "The Best Of Shocking Blue"
FILE "Shocking Blue - The Best Of Shocking Blue.wv" WAVE
TRACK 01 AUDIO
TITLE "Venus"
PERFORMER "Shocking Blue"
INDEX 00 00:00:00
INDEX 01 00:00:37
TRACK 02 AUDIO
TITLE "Hot Sand"
PERFORMER "Shocking Blue"
INDEX 00 03:02:23
INDEX 01 03:02:65
TRACK 03 AUDIO

и так далее
[User Picture]
From:[info]double_agent
Date:May 31st, 2014 - 10:55 pm
(Link)
и вот этот файл я открываю через фубар и все в порядке
[User Picture]
From:[info]double_agent
Date:May 31st, 2014 - 10:57 pm
(Link)
сам архив это я так понимаю архив АВЕ, который лежит в той же папке
[User Picture]
From:[info]double_agent
Date:May 31st, 2014 - 10:59 pm
(Link)
А в папке с гуд мен у меня есть файл КУЭ, который я и пытаюсь открывать, и еще там есть файл с расширением АПЕ

все

менять на флак не помогло
From:[info]rednyrg721
Date:May 31st, 2014 - 11:02 pm
(Link)
я же не знал, какой там формат, .flac написал для примера, потому что он чаще всего встречается

раз .ape, значит надо так:

FILE "Bill Frisell - Good Dog, Happy Man.ape" WAVE
[User Picture]
From:[info]double_agent
Date:May 31st, 2014 - 11:06 pm
(Link)
апе ставила, не помогло
From:[info]rednyrg721
Date:May 31st, 2014 - 11:10 pm
(Link)
ну надо всё проверить, может в названии файла что-то не так

скопипастить имя ещё раз, например, может там пробелы какие-нибудь незаметные
From:(Anonymous)
Date:May 31st, 2014 - 11:16 pm
(Link)
Это тоже сделала, не помогло. Что-то другое не в порядке. Но я попробую еще раз завтра
From:[info]rednyrg721
Date:May 31st, 2014 - 11:15 pm
(Link)
кстати, а ошибка такая же была, или другая?

чота мне кажется, что фубар из коробки не умеет .ape проигрывать, надо скачать плагин
From:(Anonymous)
Date:May 31st, 2014 - 11:18 pm
(Link)
А это может быть. Если не проигрывает ошибка одна и та же, не идет быть чтобы так много альбомов лежало на раздаче с ошибкой и никто не заметил.
From:(Anonymous)
Date:June 1st, 2014 - 10:06 am
(Link)
не работает
From:[info]rednyrg721
Date:May 31st, 2014 - 11:05 pm
(Link)
все правильно, если лосслесс рип это .cue и один файл с собственно музыкой, то открывать надо .cue (и поправить в нем имя файла, если релизер накосячил)

а если это .cue и файлы для каждого трека, то .cue по идее вообще не нужен (нужен только для нарезания диска), а с файлами можно обращаться как с mp3
From:(Anonymous)
Date:May 31st, 2014 - 11:15 pm
(Link)
У меня есть некоторые альбомы в которых есть отдельные флаки, но есть такие, где только сжатый файл ивот некоторые проигываются, а некоторые нет
From:[info]rednyrg721
Date:May 31st, 2014 - 11:17 pm
(Link)
можно .cue в теги засунуть вроде бы, и тогда будет вообще один файл, действительно

но я так не делал
From:[info]rednyrg721
Date:May 31st, 2014 - 11:32 pm
(Link)
тьфу, не так прочитал

ну в общем, обычно проблема в том, что не то имя файла в строчке FILE, но может быть не проигрываются как раз файлы в формате .ape
From:[info]rednyrg721
Date:May 31st, 2014 - 11:07 pm
(Link)
>и все в порядке

потому что там эта строчка правильная

FILE "Shocking Blue - The Best Of Shocking Blue.wv" WAVE

.wv это тоже такой лосслесс формат, не путать с .wav (это несжатый звук)
[User Picture]
From:[info]double_agent
Date:June 1st, 2014 - 10:20 am
(Link)
Заработало. Спасибо!
From:[info]rednyrg721
Date:June 1st, 2014 - 11:12 am
(Link)
Ура!
Powered by LJ.Rossia.org